#TITLE:The Top;
#SUBTITLE:;
#ARTIST:Ken Blast;
#TITLETRANSLIT:;
#SUBTITLETRANSLIT:;
#ARTISTTRANSLIT:;
#GENRE:;
#CREDIT:;
#BANNER:217.jpg;
#BACKGROUND:;
#LYRICSPATH:;
#CDTITLE:;
#MUSIC:thetop.mp3;
#OFFSET:-0.040;
#SAMPLESTART:12.020;
#SAMPLELENGTH:12.000;
#SELECTABLE:YES;
#BPMS:0.000=80.000,16.000=160.000;
#STOPS:;
#DELAYS:;
#TIMESIGNATURES:0.000=4=4
;
#BGCHANGES:;
#KEYSOUNDS:;
#ATTACKS:;
// cache tags:
#FIRSTBEAT:16.000;
#LASTBEAT:205.000;
#SONGFILENAME:/Songs/ParaPara/The Top/The Top.sm;
#HASMUSIC:1;
#HASBANNER:1;
#MUSICLENGTH:92.473;
// end cache tags

//---------------para-single - Blank----------------
#NOTES:
     para-single:
     Blank:
     Beginner:
     1:
     0.241,0.360,0.162,0.119,0.000,130.000,15.000,11.000,0.000,0.000,0.000,0.000,-1.000,-1.000,0.241,0.360,0.162,0.119,0.000,130.000,15.000,11.000,0.000,0.000,0.000,0.000,-1.000,-1.000:
00000
00000
00000
00000
,
00000
00000
00000
00000
,
00000
00000
00000
00000
,
00000
00000
00000
00000
,
02020
03030
00000
01010
,
00010
00000
01000
00000
,
00001
00000
10000
00010
00000
00000
00000
00000
,
00000
02000
00000
00002
,
00000
03003
00000
01010
,
00010
00000
01000
00000
,
01000
00100
00010
00000
00010
00100
01000
00000
,
00000
01010
00000
00000
,
01010
00000
00000
00000
,
00100
00000
01000
00000
,
00010
00010
01000
01000
,
00100
01010
01010
00000
,
01010
00000
00000
00000
,
00100
00000
01000
00000
,
00010
00010
01000
01000
,
00000
00000
02020
03030
,
00000
00000
00000
00002
,
00000
00000
00000
00003
,
00100
00010
00001
00000
00100
01000
10000
00000
,
00100
00010
00100
01000
00100
00010
00001
00000
,
00000
00000
00000
20000
,
00000
00000
00000
30000
,
00100
01000
10000
00000
00100
00010
00001
00000
,
00100
01000
00100
00010
00100
01000
10000
00000
,
01000
00000
00010
00000
,
00000
01010
00000
00000
00000
00000
00000
00000
,
01000
00100
00010
00000
00010
00100
01000
00000
,
01000
00000
01010
00000
,
01000
00000
00010
00000
,
00010
00000
01000
00000
,
01000
00100
00010
00000
00010
00100
01000
00000
,
00001
10000
00001
10000
,
01000
00000
00010
00000
,
00000
01010
00000
00000
00000
00000
00000
00000
,
01000
00100
00010
00000
00010
00100
01000
00000
,
01000
00000
01010
00000
,
01000
00000
00010
00000
,
00010
00000
01000
00000
,
01000
00100
00010
00000
00010
00100
01000
00000
,
00001
10000
00001
00000
,
00000
00000
00002
00003
,
00000
00000
00000
00000
,
00001
00000
10000
00010
00000
00000
00000
00000
,
00000
02000
00000
00002
,
00000
03003
00000
01010
,
00010
00000
01000
00000
,
01000
00100
00010
00000
00010
00100
01000
00000
,
00000
01010
00000
00000
;

//---------------para-single - Blank----------------
#NOTES:
     para-single:
     Blank:
     Edit:
     1:
     0.000,0.000,0.000,0.000,0.000,0.000,0.000,0.000,0.000,0.000,0.000,0.000,-1.000,-1.000,0.000,0.000,0.000,0.000,0.000,0.000,0.000,0.000,0.000,0.000,0.000,0.000,-1.000,-1.000:
00000
00000
00000
00000
;
